Emulation Galaxy Forums
Not logged in [Login ]
Go To Bottom

Printable Version | Subscribe | Add to Favorites  
Author: Subject: emulacija saturna
link2rage
V.I.P.
*****



Posts: 438
Registered: 12.3.2004
Member Is Offline

Mood: No Mood

[*] posted on 5.1.2006 at 18:32
emulacija saturna


koliko ste daleko dogurali sa emulacijom saturn-a
View user's profile View All Posts By User
forsaken demon
Supper Administrator
*********

Avatar


Posts: 13499
Registered: 9.8.2002
Location: Novi Sad
Member Is Offline

Mood: What a horrible life to have a curse

[*] posted on 18.1.2006 at 16:03


Mi ili programeri :) Treba da uradimo update na sajtu u vezi Saturn emulacije, ali trenutno jedini kvalitetan emulator ove konzole je SSF koji odlično emulirana na desetine igara, ali ti za njega treba veoma jaka mašina (neki miminum je procesor na oko 3Ghz) koja obavezno podržava SSE 2 instrukcije (znači Pentium IV ili Athlon 64). Probao sam par igara prethodnih dana i sve rade jako dobro. Mortal Kombat II je maltene savršen a i odlični Burning Rangers dobro radi.

Nadam se da će naredne verzije doneti malo bolju optimizaciju, ne kupuje mi se baš novi procesor :-)






'Fighting evil, so you don't have to!'

"What are you dense? Are you RETARDED or something? Who the hell do you THINK I am?
I'm the goddamn Batman." - Batman Ultimate thread
View user's profile Visit user's homepage View All Posts By User
Vampir
Moderator
******

Avatar


Posts: 3928
Registered: 27.10.2002
Location: EmuGLX forum
Member Is Offline

Mood: a

[*] posted on 23.1.2006 at 19:32


E pa da ne otvaram novi topic tu cu da pitam :). Skinuo sam Dragon Force USA verzija za Saturn sa Emuparadise sajta. Kad probam da je pokrenem u Casinni emulatoru javlja mi ovu gresku:


Ima li spasa ili da skidam ponovo sa drugog sajta?

Ah da i kad probam da je mountujem u Daemonu 3.44 javlja mi ovo:





[Edited on 23-1-2006 by Vampir]




View user's profile Visit user's homepage View All Posts By User
Necro
sellout
******



Posts: 1205
Registered: 13.8.2004
Member Is Offline


[*] posted on 24.1.2006 at 14:14


@Vampir
Mozda ti je los cue fajl? Ja imam neki programchic za pravljenje cue fajlova al podrzhava samo iso fomat ne i bin :( Nikad nisam ceprkao po cue fajlovima, al otvori taj cue fajl u notepadu i njegov sadrzaj postuj ovdje - mozda ce neko znati o cemu se radi :ha?:

@[fd]
I ja se nadam da ce ga optimizovati. Ispade da je Saturn emulacija zahtijevnija od Dreamcast emulacije :)

S obzirom da nemam Athlon64 i Pentium testirao sam Cassini 4.0 kao i 5.0 verziju. Oh, bozhe kad vidim - emulator zauzima cak 40 mb (instalacioni fajl je 15 mb, dok je update za 5.0 verziju 5 mb) :eyes:

Uz emulator dobijate sve i svasta - razne pluginove (koje se ne usudjujem da testiram), loadere i alate konvertovanje mp3 u wav... Inace fajl kojim pokrecem emulator moj antivirus prepoznaje kao virus (mada se ne radi o virusu, valjda) pa moram da iskljuchim anitivirus monitoring :eyes:

Dok skapirate kako emulator radi proci ce dosta vremena :eyes: Ukoliko nemate zhivaca za eksperimentisanje prijateljski savjet - stay away from this :)

Testirao sam nekoliko igara sa ovim emulatorom:

Mortal Kombat 2:
Mogu da pokrenem igru al nakon uvodnog dijela emulator izleti na desktop

Hi-Octane:
Iako izvlacim 50-60 fps imam utisak da igra radi prilicno usporeno
screenshot

Guardian Force:
Izvlacim 30-40 frame-ova u sekundi :)
screenshot

Daytona USA:
Od navedenih igara radi najbolje. Medjutim i dalje sticem utisak da igra nije dovoljno brza :ha?:
screenshot

Eh da emulator (bolje reci daemon tools) ne podrzava iso+mp3 kombinaciju pa sam morao da mp3

fajlove konvertujem u wav i da napravim poseban cue fajl pomocu segacuemakera :)
S vremena na vrijeme emulator mi zabolokira (ne vjerujem da je do emulatora). Grafichka mi je u kvaru

mozda zbog toga :D

Na kraju poklon od mene ;)
http://segafanatik.free.fr/fichiers/sega_saturn/
http://segamaniak.free.fr/fichiers/saturn/




View user's profile View All Posts By User
Vampir
Moderator
******

Avatar


Posts: 3928
Registered: 27.10.2002
Location: EmuGLX forum
Member Is Offline

Mood: a

[*] posted on 24.1.2006 at 22:56


A od dakle ti Cassini 4.0 ? Ja imam Cassini 1.0 Lite vrziju. Daj neki link za download.

Inace evo sta javlja u notpadu:

FILE "CD.bin" BINARY


REM SESSION 01 ; Not supported by other applications (*)
TRACK 01 MODE1/2352
INDEX 01 00:00:00
REM MSF: 00:00:00 = LBA: 0
TRACK 02 AUDIO
INDEX 00 62:31:40
REM MSF: 62:31:40 = LBA: 281365
INDEX 01 62:33:42
REM MSF: 62:33:42 = LBA: 281365

REM (*) SESSION directives are unfortunately not properly supported
REM 'out there'. IsoBuster however supports them !

Ok skinuo sam ovaj Isobuster i izrezao sam Dragon Force na CD, ali sad se emu smrzava i javlja se blue screen of death. Daj brate neki link za Cassini 4.0 jer ovaj sto imam ja nevalja nesto. Inace imam i sve verzije biosa.

[Edited on 24-1-2006 by Vampir]




View user's profile Visit user's homepage View All Posts By User
Necro
sellout
******



Posts: 1205
Registered: 13.8.2004
Member Is Offline


[*] posted on 25.1.2006 at 00:42


khm edit - link ne radi
try this http://www.emu-france.com/?page=fichiers&idFile=2977

Ako link ne radi probaj da ga nadjes na ovoj stranici: http://www.emu-france.com/?page=fichiers&idMachine=25

Update za 5.0: http://www.lanified.com/Downloads/Cassini_4-5_Updater.exe

Sto se cue fajla tice probaj da:

FILE "CD.bin" BINARY

promijenis u

FILE "DragonForce(Saturn_USA).bin" BINARY

Ako i dalje ne uspijes da ga mountujes u dtools-u probaj da u cue fajlu uklonis svaku liniju u kojoj pise REM "nesto"

Evo kako izgleda jedan moj cue fajl :

FILE "MK2.BIN" BINARY
TRACK 01 MODE1/2352
INDEX 01 00:00:00
TRACK 02 AUDIO
PREGAP 00:02:00
INDEX 01 02:51:53

[Edited on 24.1.2006 by Necro]




View user's profile View All Posts By User
Vampir
Moderator
******

Avatar


Posts: 3928
Registered: 27.10.2002
Location: EmuGLX forum
Member Is Offline

Mood: a

[*] posted on 25.1.2006 at 01:04


Ma nece pomovo neki error javlja, ma iznervirao sam se. A od dakle si ti skinuo Dragon Force? Moj je sa EmuParadise-a.



View user's profile Visit user's homepage View All Posts By User
Necro
sellout
******



Posts: 1205
Registered: 13.8.2004
Member Is Offline


[*] posted on 25.1.2006 at 01:27


Nemam Dragon force :D



View user's profile View All Posts By User
Vampir
Moderator
******

Avatar


Posts: 3928
Registered: 27.10.2002
Location: EmuGLX forum
Member Is Offline

Mood: a

[*] posted on 25.1.2006 at 01:31


AAAAAAAAA sad mi kazes :) Ok nema veze snacicu se ves nekako. Hvala na pomoci



View user's profile Visit user's homepage View All Posts By User
HAVAYOTH
Mad Monarch
******

Avatar


Posts: 2221
Registered: 13.3.2004
Location: Mad Monarchy of Iscalio/Novi SAd/
Member Is Offline

Mood: najštrašnija hardkor pornografija u najgorem obliku!

[*] posted on 25.1.2006 at 05:02


e ovako vampir.Ja imam cassini 2.0.
Treba da t stoji auto chose cd region.Onda ides u emu tools,kod mene je to cassini tools i tamo pod sekcijom CUE/Bin imas da kovertujes iso u cue+iso(2048) ili cue+bin(2352).zaboravio sam koji sam ja izabrao od ta dva ali probaj oba.I samo Run cue/bin sa harda i to je to...Aj bas cu videti jel imam link za 2.0
Evo ovde imaju biosi da se skinu mislim da ja koristim ovaj euro
http://www.vgfreak.com/consoles/sat.htm
Evo uspeo sam da uploadujem emulator
http://rapidshare.de/files/11774212/Cassini_2.exe.html



[Edited on 25.1.2006 by HAVAYOTH]





View user's profile Visit user's homepage View All Posts By User
Vampir
Moderator
******

Avatar


Posts: 3928
Registered: 27.10.2002
Location: EmuGLX forum
Member Is Offline

Mood: a

[*] posted on 25.1.2006 at 20:54


A jel dolazis na okupljanje u Krusevcu? Ako dolazis obavezno donesi drgaon Force i emu jer kod mene nece nikako da proradi.



View user's profile Visit user's homepage View All Posts By User
HAVAYOTH
Mad Monarch
******

Avatar


Posts: 2221
Registered: 13.3.2004
Location: Mad Monarchy of Iscalio/Novi SAd/
Member Is Offline

Mood: najštrašnija hardkor pornografija u najgorem obliku!

[*] posted on 25.1.2006 at 23:48


Nah nema sanse,ja i okupljanja...
Probavaj mora da proradi.instaliraj taj cassini,extractuj evropski bios u cassini folder,ubaci iso u saturn isos folder/nalazi se isto u cassini folderu/,konvertuj na oba nachina iso i pokreni.Trebalo bi da radi posto sam i ja igru skinuo sa emu paradisa,tako da je image isti.
Da zaboravio sam region options mi stoji japan...

[Edited on 25.1.2006 by HAVAYOTH]





View user's profile Visit user's homepage View All Posts By User
Stifler
Super Fr1ck
******

Avatar


Posts: 2628
Registered: 21.8.2005
Location: Požarevac, Serbia
Member Is Offline

Mood: At War With The Weights

[*] posted on 25.11.2006 at 14:23


samo da pitam da li radi Bug za saturn??:ha?:
stvarno dobra igra,rado bih je opet zaigrao...




Friends may come and go, but a ten plates barbell is always a ten plates barbell. Weightlifting is my best friend, Pain is my bitch.
View user's profile View All Posts By User

  Go To Top

Powered by XMB 1.9.11
Developed By The XMB Group © 2001-2010